Артём Исламов - Марафон "50 000 на фрилансе" (2017) скачать торрент (torrent)

Ответить на тему
 
Автор Сообщение

ruwiki ®

Пол: Не указан

Стаж: 3 года 5 месяцев

Сообщений: 1834

Создавать темы 07-Фев-2018 19:01

[Цитировать]

Артём Исламов | Марафон "50 000 на фрилансе" (2017) PCRec [H.264] - Автор (режиссер): Артём Исламов
Жанр: Видеокурс
Описание:
Марафон — подойдет для тех людей, кто хочет работать на фрилансе. Автор рассказывает все от А до Я в сжатой форме.
Продолжительность: 13:46:17
Качество видео: PCRec
Видео: AVC/H.264, 1280x720-1920x1080, ~115-1901 Kbps
Аудио: AAC, 2 ch, 125-256 Kbps

Mediainfo:

Общее
Полное имя : \День 01. Упаковка себя в соц сетях\День 1. Упаковка себя в соц сетях.MP4
Формат : MPEG-4
Профиль формата : Base Media / Version 2
Идентификатор кодека : mp42 (mp42/mp41/isom/avc1)
Размер файла : 133 Мбайт
Продолжительность : 24 м. 8 с.
Режим общего битрейта : Переменный
Общий поток : 771 Кбит/сек
Дата кодирования : UTC 2017-08-28 06:27:18
Дата пометки : UTC 2017-08-28 06:27:18
Видео
Идентификатор : 1
Формат : AVC
Формат/Информация : Advanced Video Codec
Профиль формата : High@L3.2
Параметр CABAC формата : Да
Параметр RefFrames формата : 5 кадров
Идентификатор кодека : avc1
Идентификатор кодека/Информация : Advanced Video Coding
Продолжительность : 24 м. 8 с.
Битрейт : 510 Кбит/сек
Ширина : 1280 пикселей
Высота : 720 пикселей
Соотношение сторон : 16:9
Режим частоты кадров : Постоянный
Частота кадров : 29,970 (30000/1001) кадров/сек
Цветовое пространство : YUV
Субдискретизация насыщенности : 4:2:0
Битовая глубина : 8 бит
Тип развёртки : Прогрессивная
Бит/(Пиксели*Кадры) : 0.018
Размер потока : 88,1 Мбайт (66%)
Библиотека кодирования : x264 core 150 r10 df79067
Настройки программы : cabac=1 / ref=5 / deblock=1:0:0 / analyse=0x3:0x113 / me=hex / subme=8 / psy=1 / psy_rd=1.00:0.00 / mixed_ref=1 / me_range=16 / chroma_me=1 / trellis=2 / 8x8dct=1 / cqm=0 / deadzone=21,11 / fast_pskip=1 / chroma_qp_offset=-2 / threads=22 / lookahead_threads=3 / sliced_threads=0 / nr=0 / decimate=1 / interlaced=0 / bluray_compat=0 / stitchable=1 / constrained_intra=0 / bframes=3 / b_pyramid=2 / b_adapt=1 / b_bias=0 / direct=3 / weightb=1 / open_gop=0 / weightp=2 / keyint=infinite / keyint_min=29 / scenecut=40 / intra_refresh=0 / rc_lookahead=50 / rc=crf / mbtree=1 / crf=20.0 / qcomp=0.60 / qpmin=5 / qpmax=69 / qpstep=4 / vbv_maxrate=2750 / vbv_bufsize=7500 / crf_max=0.0 / nal_hrd=none / filler=0 / ip_ratio=1.40 / aq=1:1.00
Дата кодирования : UTC 2017-08-28 06:27:18
Дата пометки : UTC 2017-08-28 06:27:18
Цветовой диапазон : Limited
Основные цвета : BT.709
Характеристики трансфера : BT.709
Коэффициенты матрицы : BT.709
Аудио
Идентификатор : 2
Формат : AAC
Формат/Информация : Advanced Audio Codec
Профиль формата : LC
Идентификатор кодека : 40
Продолжительность : 24 м. 8 с.
Вид битрейта : Переменный
Битрейт : 256 Кбит/сек
Каналы : 2 канала
Расположение каналов : Front: L R
Частота : 48,0 КГц
Частота кадров : 46,875 кадров/сек (1024 SPF)
Метод сжатия : С потерями
Размер потока : 44,2 Мбайт (33%)
Дата кодирования : UTC 2017-08-28 06:27:18
Дата пометки : UTC 2017-08-28 06:27:18
Общее
Полное имя : \День 12. Перед работой с клиентом\День 12. Перед работой с клиентом.MP4
Формат : MPEG-4
Профиль формата : Base Media / Version 2
Идентификатор кодека : mp42 (mp42/mp41/isom/avc1)
Размер файла : 547 Мбайт
Продолжительность : 38 м. 40 с.
Режим общего битрейта : Переменный
Общий поток : 1976 Кбит/сек
Дата кодирования : UTC 2017-09-09 09:13:57
Дата пометки : UTC 2017-09-09 09:13:57
Видео
Идентификатор : 1
Формат : AVC
Формат/Информация : Advanced Video Codec
Профиль формата : High@L4
Параметр CABAC формата : Да
Параметр RefFrames формата : 4 кадра
Идентификатор кодека : avc1
Идентификатор кодека/Информация : Advanced Video Coding
Продолжительность : 38 м. 40 с.
Битрейт : 1716 Кбит/сек
Ширина : 1920 пикселей
Высота : 1080 пикселей
Соотношение сторон : 16:9
Режим частоты кадров : Постоянный
Частота кадров : 29,970 (30000/1001) кадров/сек
Цветовое пространство : YUV
Субдискретизация насыщенности : 4:2:0
Битовая глубина : 8 бит
Тип развёртки : Прогрессивная
Бит/(Пиксели*Кадры) : 0.028
Размер потока : 475 Мбайт (87%)
Библиотека кодирования : x264 core 150 r10 df79067
Настройки программы : cabac=1 / ref=4 / deblock=1:0:0 / analyse=0x3:0x113 / me=hex / subme=8 / psy=1 / psy_rd=1.00:0.00 / mixed_ref=1 / me_range=16 / chroma_me=1 / trellis=2 / 8x8dct=1 / cqm=0 / deadzone=21,11 / fast_pskip=1 / chroma_qp_offset=-2 / threads=34 / lookahead_threads=5 / sliced_threads=0 / nr=0 / decimate=1 / interlaced=0 / bluray_compat=0 / stitchable=1 / constrained_intra=0 / bframes=3 / b_pyramid=2 / b_adapt=1 / b_bias=0 / direct=3 / weightb=1 / open_gop=0 / weightp=2 / keyint=infinite / keyint_min=29 / scenecut=40 / intra_refresh=0 / rc_lookahead=50 / rc=crf / mbtree=1 / crf=20.0 / qcomp=0.60 / qpmin=5 / qpmax=69 / qpstep=4 / vbv_maxrate=5500 / vbv_bufsize=15000 / crf_max=0.0 / nal_hrd=none / filler=0 / ip_ratio=1.40 / aq=1:1.00
Дата кодирования : UTC 2017-09-09 09:13:57
Дата пометки : UTC 2017-09-09 09:13:57
Цветовой диапазон : Limited
Основные цвета : BT.709
Характеристики трансфера : BT.709
Коэффициенты матрицы : BT.709
Аудио
Идентификатор : 2
Формат : AAC
Формат/Информация : Advanced Audio Codec
Профиль формата : LC
Идентификатор кодека : 40
Продолжительность : 38 м. 40 с.
Вид битрейта : Переменный
Битрейт : 256 Кбит/сек
Каналы : 2 канала
Расположение каналов : Front: L R
Частота : 48,0 КГц
Частота кадров : 46,875 кадров/сек (1024 SPF)
Метод сжатия : С потерями
Размер потока : 70,8 Мбайт (13%)
Дата кодирования : UTC 2017-09-09 09:13:57
Дата пометки : UTC 2017-09-09 09:13:57

Программа марафона:

День 1. Упаковка себя в соц сетях.
День 2. Первые работы в портфолио.
День 3. Сайт портфолио.
День 4. Сотрудничество с агентствами.
День 5. Я везде.
День 6. Блогинг. Не для всех.
День 7. Трафик. Яндекс.
День 8. Трафик. Вконтакте.
День 9. Трафик. Сайты.
День 10. Партнеры.
День 11. Учет клиентов.
День 12. Перед работой с клиентом.
День 13. Работа с заказчиком.
День 14. Стоимость работы и сроки.
День 15. Работа с правками.
День 16. База клиентов.
День 17. Сдача проекта.
Скриншоты:
Скачать .torrent

Для того, чтобы скачать торрент-файл

Артём Исламов - Марафон "50 000 на фрилансе" (2017)

с нашего сайта, Вам необходимо Войти на сайт под своим логином! Если у Вас ещё нет логина, тогда Вам нужно сначала Зарегистрироваться!

Как скачивать? · Что такое торрент? · Правила, FAQ'и, инструкции

     Добавлен      Похожие темы Размер     S  |  L     Торрент
30-Сен-18 14:22 Брэдли Биркенфельд - Игра Люцифера. Как один человек раскрыл "глобальный заговор", вышел из тюрьмы и стал миллионером (2018) Отв. 0 2 MB
124 | 0
Скачать .torrent
20-Апр-18 10:12 Артем Генкин, Алексей Михеев - Блокчейн. Как это работает и что ждет нас завтра (2018) Отв. 0 69 MB
80 | 12
Скачать .torrent
03-Окт-17 09:06 Окишев Игорь - "Профит Канал - Тренд". Курс для новичков. (2017) Отв. 0 2,39 GB
0 | 0
Скачать .torrent
02-Сен-17 11:48 Артём Исламов - Интенсив по заработку для фрилансеров (2017) Отв. 0 1,1 GB
30 | 0
Скачать .torrent
[Профиль] [ЛС]
Показать сообщения:    
Ответить на тему

Артём Исламов - Марафон "50 000 на фрилансе" (2017) скачать торрент (torrent)

Текущее время: 21-Окт 19:11

Часовой пояс: UTC ± 0



Вы не можете начинать темы
Вы не можете отвечать на сообщения
Вы не можете редактировать свои сообщения
Вы не можете удалять свои сообщения
Вы не можете голосовать в опросах
Вы не можете прикреплять файлы к сообщениям
Вы не можете скачивать файлы