Роман Пузат, Евгений Кошкин - Выгодные Сайты [Четырёхдневный курс по покупке/продаже сайтов] (2015) скачать торрент (torrent)

Ответить на тему
 
Автор Сообщение

ruwiki ®

Пол: Не указан

Стаж: 3 года 6 месяцев

Сообщений: 1872

Создавать темы 23-Фев-2018 18:49

[Цитировать]

Роман Пузат, Евгений Кошкин | Выгодные Сайты [Четырёхдневный курс по покупке/продаже сайтов] (2015) PCRec [H.264]- Автор (режиссер): Евгений Кошкин и Роман Пузат
Производство: Россия
Жанр: Бизнес
Описание:
- Как выгодно покупать сайты;
- Как выгодно продавать сайты;
- Как начать в теме заработка на сайтах с покупки прибыльного проекта
Продолжительность: 16:29:22
Качество видео: PCRec
Видео: AVC/H.264, 1280x720, ~315 Kbps
Аудио: AAC, 2 ch, 64.0 Kbps

Продолжение описания:

Для тех, кто покупает сайты, и инвесторам:
В какие сайты вкладывать деньги, а каких стоит остерегаться.
Критерии для быстрого поиска выгодных сайтов на Телдери.
Изучение истории сайта. Сервисы для анализа. Основные параметры сайта.
Оценка потенциала в доходе и развитии сайта.
Как не переплачивать за сайты.
Модель для оценки максимальной суммы за сайт с учетом всех факторов.
Наиболее популярные формы мошенничества с сайтами и как их избежать.

Для тех, кто продаёт сайты:

Как подготовить сайт к выгодной продаже
Что добавит ценности сайту
Самые важные аспекты в вашем сайте в глазах покупателей
Как лучше всего подготовить описание сайта
Выгодные направления для создания сайтов под дальнейшую продажу.
Продажа напрямую - как избежать мошенничества.
Для начинающих и всех остальных:
Мануал для новичков по всем основным терминам, понятиям, сервисам
Как продать или купить свой первый сайт, если ни разу еще этого не делал
Все юридические и фактически тонкости в передаче получении прав и доступов на сайт
Схемы продажи и покупки
Финансовые схемы по старту в сайтах НЕ с нуля
Быть в курсе тенденций на рынке покупки/продаже сайтов
Бонусные темы:
Заемные средства: стоит ли делать сайт в кредит
Как купить сайт под фильтром дешево, вывести его и заработать
Как не нарваться на сайт, близкий к санкциям поисковиков

Mediainfo:

General
Complete name : C:\Users\decou\Desktop\Выгодные сайты [Puzat.ru] [2015]\День 1.mp4
Format : MPEG-4
Format profile : Base Media
Codec ID : isom (isom/iso2/avc1/mp41)
File size : 614 MiB
Duration : 3 h 42 min
Overall bit rate : 386 kb/s
Writing application : Lavf54.29.104
Video
ID : 1
Format : AVC
Format/Info : Advanced Video Codec
Format profile : High@L3.1
Format settings : CABAC / 4 Ref Frames
Format settings, CABAC : Yes
Format settings, ReFrames : 4 frames
Codec ID : avc1
Codec ID/Info : Advanced Video Coding
Duration : 3 h 42 min
Bit rate : 315 kb/s
Nominal bit rate : 384 kb/s
Width : 1 280 pixels
Height : 720 pixels
Display aspect ratio : 16:9
Frame rate mode : Variable
Frame rate : 15.000 FPS
Minimum frame rate : 14.925 FPS
Maximum frame rate : 15.152 FPS
Color space : YUV
Chroma subsampling : 4:2:0
Bit depth : 8 bits
Scan type : Progressive
Bits/(Pixel*Frame) : 0.023
Stream size : 501 MiB (82%)
Writing library : x264 core 132
Encoding settings : cabac=1 / ref=1 / deblock=1:0:0 / analyse=0x3:0x113 / me=hex / subme=2 / psy=1 / psy_rd=1.00:0.00 / mixed_ref=0 / me_range=16 / chroma_me=1 / trellis=0 / 8x8dct=1 / cqm=0 / deadzone=21,11 / fast_pskip=1 / chroma_qp_offset=0 / threads=4 / lookahead_threads=1 / sliced_threads=0 / nr=0 / decimate=1 / interlaced=0 / bluray_compat=0 / constrained_intra=0 / bframes=3 / b_pyramid=2 / b_adapt=1 / b_bias=0 / direct=1 / weightb=1 / open_gop=0 / weightp=1 / keyint=30 / keyint_min=3 / scenecut=40 / intra_refresh=0 / rc_lookahead=10 / rc=cbr / mbtree=1 / bitrate=384 / ratetol=1.0 / qcomp=0.60 / qpmin=0 / qpmax=69 / qpstep=4 / vbv_maxrate=384 / vbv_bufsize=512 / nal_hrd=none / ip_ratio=1.40 / aq=1:1.00
Audio
ID : 2
Format : AAC
Format/Info : Advanced Audio Codec
Format profile : LC
Codec ID : mp4a-40-2
Duration : 3 h 42 min
Source duration : 3 h 42 min
Bit rate mode : Constant
Bit rate : 64.0 kb/s
Channel(s) : 2 channels
Channel positions : Front: L R
Sampling rate : 44.1 kHz
Frame rate : 43.066 FPS (1024 SPF)
Compression mode : Lossy
Stream size : 102 MiB (17%)
Source stream size : 102 MiB (17%)
Default : Yes
Alternate group : 1
Скриншоты:
Скачать .torrent

Для того, чтобы скачать торрент-файл

Роман Пузат, Евгений Кошкин - Выгодные Сайты [Четырёхдневный курс по покупке/продаже сайтов] (2015)

с нашего сайта, Вам необходимо Войти на сайт под своим логином! Если у Вас ещё нет логина, тогда Вам нужно сначала Зарегистрироваться!

Как скачивать? · Что такое торрент? · Правила, FAQ'и, инструкции

     Добавлен      Похожие темы Размер     S  |  L     Торрент
07-Сен-18 10:00 Евгений Некоз - Чат-боты для Amazon и не только [Вебинар] (2018) Отв. 0 1,76 GB
22 | 0
Скачать .torrent
07-Сен-18 09:59 Евгений Козлов, Дмитрий Кудряшов - Администратор Instagram. Руководство по заработку (2018) Отв. 0 2 MB
174 | 0
Скачать .torrent
08-Июл-18 17:01 Евгений Хата - Блокчейн для бабушки за 60 минут (2018) Отв. 0 965 KB
88 | 0
Скачать .torrent
20-Апр-18 10:17 Евгений Хата - Блокчейн для бабушки за 60 минут (2018) Отв. 0 1 MB
66 | 0
Скачать .torrent
20-Апр-18 10:17 Евгений Ждан - MQL4-программирование: торговый робот за один вечер (2017) Отв. 0 1 MB
32 | 0
Скачать .torrent
[Профиль] [ЛС]
Показать сообщения:    
Ответить на тему

Роман Пузат, Евгений Кошкин - Выгодные Сайты [Четырёхдневный курс по покупке/продаже сайтов] (2015) скачать торрент (torrent)

Текущее время: 10-Дек 15:33

Часовой пояс: UTC ± 0



Вы не можете начинать темы
Вы не можете отвечать на сообщения
Вы не можете редактировать свои сообщения
Вы не можете удалять свои сообщения
Вы не можете голосовать в опросах
Вы не можете прикреплять файлы к сообщениям
Вы не можете скачивать файлы