Змеев Сергей - Успешный личный бренд (2012) скачать торрент (torrent)

Ответить на тему
 
Автор Сообщение

ruwiki ®

Пол: Не указан

Стаж: 3 года 10 месяцев

Сообщений: 1946

Создавать темы 19-Дек-2018 08:27

[Цитировать]

Змеев Сергей | Успешный личный бренд (2012) WEB-DLRip - Автор (режиссер): Змеев Сергей
Жанр: Бизнес
Описание:
Давно известно, покупают не у компании, покупают у человека…
Успех любой, повторимся, любой сделки, в любой отрасли зависит от личности, стоящей за товаром, услугой или идеей.
Насколько успешен Ваш личный бренд, сформулирована его ценность, настолько высока стоимость Вашего продукта.
Посмотрите запись полуторачасового онлайн-тренинга и узнайте законы построения успешного бренда!
Продолжительность: 01:32:41
Качество видео: WEB-DLRip
Видео: DivX 4, 640х360, ~384 Kbps
Аудио: AAC, 2 ch, 64 Kbps

Mediainfo:

Общее
Полное имя : I:\Бизнес\Позиционирование\Успешный личный бренд (2012)\Успешный Личный Бренд.mp4
Формат : MPEG-4
Профиль формата : Base Media
Идентификатор кодека : isom (isom/iso2/mp41)
Размер файла : 299 Мбайт
Продолжительность : 1 ч. 32 м.
Режим общего битрейта : Переменный
Общий поток : 451 Кбит/сек
Исполнитель : Format Factory : www.formatoz.com
Композитор : Format Factory : www.formatoz.com
Дата кодирования : UTC 2012-03-26 08:51:12
Дата пометки : UTC 2012-03-26 08:51:12
Программа кодирования : Lavf52.23.1
Видео
Идентификатор : 1
Формат : MPEG-4 Visual
Профиль формата : Simple@L1
Параметр BVOP формата : Нет
Параметр QPel формата : Нет
Параметр GMC формата : Без точки перехода
Параметр матрицы формата : Default (H.263)
Идентификатор кодека : mp4v-20
Продолжительность : 1 ч. 32 м.
Битрейт : 384 Кбит/сек
Ширина : 640 пикселей
Высота : 360 пикселей
Соотношение сторон : 16:9
Режим частоты кадров : Постоянный
Частота кадров : 18,000 кадров/сек
Цветовое пространство : YUV
Субдискретизация насыщенности : 4:2:0
Битовая глубина : 8 бит
Тип развёртки : Прогрессивная
Метод сжатия : С потерями
Бит/(Пиксели*Кадры) : 0.093
Размер потока : 255 Мбайт (85%)
Библиотека кодирования : Lavc52.6.0
Дата кодирования : UTC 2012-03-26 08:51:12
Дата пометки : UTC 2012-03-26 08:51:12
Аудио
Идентификатор : 2
Формат : AAC
Формат/Информация : Advanced Audio Codec
Профиль формата : LC
Идентификатор кодека : mp4a-40-2
Продолжительность : 1 ч. 32 м.
Вид битрейта : Переменный
Битрейт : 64,0 Кбит/сек
Каналы : 2 канала
Расположение каналов : Front: L R
Частота : 22,05 КГц
Частота кадров : 21,533 кадра/сек (1024 SPF)
Метод сжатия : С потерями
Размер потока : 42,4 Мбайт (14%)
Дата кодирования : UTC 2012-03-26 08:51:12
Дата пометки : UTC 2012-03-26 08:51:12
Скриншоты:
Скачать .torrent

Для того, чтобы скачать торрент-файл

Змеев Сергей - Успешный личный бренд (2012)

с нашего сайта, Вам необходимо Войти на сайт под своим логином! Если у Вас ещё нет логина, тогда Вам нужно сначала Зарегистрироваться!

Как скачивать? · Что такое торрент? · Правила, FAQ'и, инструкции

     Добавлен      Похожие темы Размер     S  |  L     Торрент
04-Мар-19 13:28 Сергей Алексашенко - Контрреволюция (2019) Отв. 0 5 MB
90 | 2
Скачать .torrent
30-Сен-18 14:24 Сергей Маковский - Миллион на перепродаже автомобилей (2017) Отв. 0 1,51 GB
14 | 0
Скачать .torrent
08-Июл-18 17:01 Сергей Абдульманов - Евангелист бизнеса. Рассказы о контент-маркетинге и бренд-журналистике в России (2017) Отв. 0 6 MB
36 | 4
Скачать .torrent
12-Май-18 02:52 Юрген Саленбахер - Создайте личный бренд. Как находить возможности (2018) Отв. 0 48 MB
52 | 23
Скачать .torrent
[Профиль] [ЛС]
Показать сообщения:    
Ответить на тему

Змеев Сергей - Успешный личный бренд (2012) скачать торрент (torrent)

Текущее время: 25-Мар 01:53

Часовой пояс: UTC ± 0



Вы не можете начинать темы
Вы не можете отвечать на сообщения
Вы не можете редактировать свои сообщения
Вы не можете удалять свои сообщения
Вы не можете голосовать в опросах
Вы не можете прикреплять файлы к сообщениям
Вы не можете скачивать файлы