Евгений Некоз - Автоматизация Amazon с помощью Zennoposter. От новичка до профи [Вебинар] (2018) скачать торрент (torrent)

Ответить на тему
 
Автор Сообщение

ruwiki ®

Пол: Не указан

Стаж: 3 года 10 месяцев

Сообщений: 1946

Создавать темы 19-Дек-2018 08:28

[Цитировать]

Евгений Некоз | Автоматизация Amazon с помощью Zennoposter. От новичка до профи [Вебинар] (2018) WEBRip [H.264/720p-LQ]- Автор (режиссер): Евгений Некоз
Жанр: Вебинары
Описание:
Кому будет полезен этот вебинар?
Он максимально подойдет если Вы:
1. Хотите понять и увидеть как на практике работают флет-файлы, рестарты/сломы и получить ответы на свои вопросы (и решить свои проблемы).
2. Хотите понять как конкуренты делают основные атаки на Амазоне и как от этого защищаться.
3. Хотите узнать как делается склейка чужого бренда.
4. Интересуетесь последними техническими подходами для продавцов на Амазон.
5. Хотите увеличить продажи и поднять уровень своих знаний по Амазону.
Продолжительность: 01:19:15
Качество видео: WEBRip
Видео: AVC/H.264, 1280x720, ~171 Kbps
Аудио: AAC, 2 ch, 126 Kbps

Mediainfo:

General
Format : MPEG-4
Format profile : Base Media / Version 2
Codec ID : mp42
File size : 158 MiB
Duration : 1h 13mn
Overall bit rate mode : Variable
Overall bit rate : 300 Kbps
Encoded date : UTC 2016-08-27 18:35:34
Tagged date : UTC 2016-08-27 18:35:34
gsst : 0
gstd : 4417666
Video
ID : 1
Format : AVC
Format/Info : Advanced Video Codec
Format profile : Main@L3.1
Format settings, CABAC : Yes
Format settings, ReFrames : 3 frames
Codec ID : avc1
Codec ID/Info : Advanced Video Coding
Duration : 1h 13mn
Bit rate mode : Variable
Bit rate : 171 Kbps
Width : 1 270 pixels
Height : 720 pixels
Display aspect ratio : 16:9
Frame rate mode : Constant
Frame rate : 25.000 fps
Color space : YUV
Chroma subsampling : 4:2:0
Bit depth : 8 bits
Scan type : Progressive
Bits/(Pixel*Frame) : 0.007
Stream size : 90.2 MiB (57%)
Title : ISO Media file produced by Google Inc.
Encoded date : UTC 2016-08-27 18:35:34
Tagged date : UTC 2016-08-27 18:35:34
Color primaries : BT.709-5, BT.1361, IEC 61966-2-4, SMPTE RP177
Transfer characteristics : BT.709-5, BT.1361
Matrix coefficients : BT.709-5, BT.1361, IEC 61966-2-4 709, SMPTE RP177
Audio
ID : 2
Format : AAC
Format/Info : Advanced Audio Codec
Format profile : LC
Codec ID : 40
Duration : 1h 13mn
Bit rate mode : Variable
Bit rate : 126 Kbps
Channel(s) : 2 channels
Channel positions : Front: L R
Sampling rate : 44.1 KHz
Compression mode : Lossy
Delay relative to video : -40ms
Stream size : 66.1 MiB (42%)
Title : ISO Media file produced by Google Inc.
Encoded date : UTC 2016-08-27 18:35:34
Tagged date : UTC 2016-08-27 18:35:34
Скриншоты:
Скачать .torrent

Для того, чтобы скачать торрент-файл

Евгений Некоз - Автоматизация Amazon с помощью Zennoposter. От новичка до профи [Вебинар] (2018)

с нашего сайта, Вам необходимо Войти на сайт под своим логином! Если у Вас ещё нет логина, тогда Вам нужно сначала Зарегистрироваться!

Как скачивать? · Что такое торрент? · Правила, FAQ'и, инструкции

     Добавлен      Похожие темы Размер     S  |  L     Торрент
19-Янв-19 10:08 Евгений Щепин - ВкусВилл: Как совершить революцию в ритейле, делая всё не так (2018) Отв. 0 265 MB
38 | 0
Скачать .torrent
19-Янв-19 10:07 Джон Дорр - Измеряйте самое важное. Как Google, Intel и другие компании добиваются роста с помощью OKR (2019) Отв. 0 3 MB
124 | 0
Скачать .torrent
28-Дек-18 17:39 Евгений Щепин - ВкусВилл. Как совершить революцию в ритейле, делая всё не так (2019) Отв. 0 8 MB
80 | 0
Скачать .torrent
19-Дек-18 08:31 Екатерина Уварова, Евгений Якимов - Instagram. Секрет успеха ZT PRO. От А до Я в продвижении (2018) Отв. 0 1 MB
106 | 2
Скачать .torrent
19-Дек-18 08:30 Евгений Запотылок - Котенок, ребенок и голая женщина. Психология влияния рекламы (2019) Отв. 0 1 MB
90 | 4
Скачать .torrent
[Профиль] [ЛС]
Показать сообщения:    
Ответить на тему

Евгений Некоз - Автоматизация Amazon с помощью Zennoposter. От новичка до профи [Вебинар] (2018) скачать торрент (torrent)

Текущее время: 23-Мар 19:19

Часовой пояс: UTC ± 0



Вы не можете начинать темы
Вы не можете отвечать на сообщения
Вы не можете редактировать свои сообщения
Вы не можете удалять свои сообщения
Вы не можете голосовать в опросах
Вы не можете прикреплять файлы к сообщениям
Вы не можете скачивать файлы