Станислав Бернухов - Опционы:простые стратегии для эффективной торговли (2018) скачать торрент (torrent)

Ответить на тему
 
Автор Сообщение

ruwiki ®

Пол: Не указан

Стаж: 3 года 10 месяцев

Сообщений: 1946

Создавать темы 04-Мар-2019 13:24

[Цитировать]

Станислав Бернухов | Опционы:простые стратегии для эффективной торговли (2018) PCRec [H.264/720p]- Автор (режиссер): Станислав Бернухов
Жанр: Трейдинг
Описание:
Мастер-курс «Опционы: простые стратегии для эффективной торговли»
Приветствую Вас! Меня зовут Станислав Бернухов и я представляю свой мастер-курс, посвященный опционной торговле для начинающих.
Вы на рынке не первый год и, возможно, задаете себе следующие вопросы:
• Я умею неплохо прогнозировать основные краткосрочные движения цен, но не вижу как на этом заработать (где поставить стоп, как правильно войти, сопровождать позицию);
• У меня есть базовое понимание рынка, но я занят(а) на основной работе (в собственном бизнесе) и у меня просто нет времени находить точки входа в торговле фьючерсами;
• Я часто вижу куда пойдет рынок, но испытываю психологический дискомфорт от взятия стопов;
• Я хотел(а) бы получать прибыль не только в моменты больших движений на рынке, но и тогда, когда цена замыкается в консолидациях/диапазонах;
• Мне интересно пробовать новое и расширять диапазон своих возможностей в трейдинге;
• Как удается чемпионам «ЛЧИ» (и другим чемпионам) увеличивать счета за столь короткое время?
• Если вы задавали себе хотя бы один из вышеперечисленных вопросов, то вам определенно стоит присмотреться к торговле опционами.
Продолжительность: 07:40:45
Качество видео: PCRec
Видео: AVC/H.264, 1280x720, ~737 kbps
Аудио: AAC, 2 ch, 187 kbps

Mediainfo:

General
Complete name : C:\ОПЦИОНЫ. Станислав Бернухов\Options. Lesson 1 [31.10.2018].mp4
Format : MPEG-4
Format profile : Base Media
Codec ID : isom (isom/iso2/avc1/mp41)
File size : 698 MiB
Duration : 1 h 44 min
Overall bit rate mode : Variable
Overall bit rate : 931 kb/s
Writing application : Lavf57.71.100
Video
ID : 1
Format : AVC
Format/Info : Advanced Video Codec
Format profile : Main@L3.1
Format settings : CABAC / 1 Ref Frames
Format settings, CABAC : Yes
Format settings, ReFrames : 1 frame
Format settings, GOP : M=1, N=25
Codec ID : avc1
Codec ID/Info : Advanced Video Coding
Duration : 1 h 44 min
Bit rate mode : Constant
Bit rate : 737 kb/s
Nominal bit rate : 900 kb/s
Width : 1 280 pixels
Height : 720 pixels
Display aspect ratio : 16:9
Frame rate mode : Constant
Frame rate : 30.000 FPS
Color space : YUV
Chroma subsampling : 4:2:0
Bit depth : 8 bits
Scan type : Progressive
Bits/(Pixel*Frame) : 0.027
Stream size : 553 MiB (79%)
Codec configuration box : avcC
Audio
ID : 2
Format : AAC
Format/Info : Advanced Audio Codec
Format profile : LC
Codec ID : mp4a-40-2
Duration : 1 h 44 min
Bit rate mode : Variable
Bit rate : 187 kb/s
Maximum bit rate : 192 kb/s
Channel(s) : 2 channels
Channel positions : Front: L R
Sampling rate : 44.1 kHz
Frame rate : 43.066 FPS (1024 SPF)
Compression mode : Lossy
Stream size : 140 MiB (20%)
Default : Yes
Alternate group : 1
General
Complete name : C:\ОПЦИОНЫ. Станислав Бернухов\Options. Lesson 2 [07.11.2018].mp4
Format : MPEG-4
Format profile : Base Media
Codec ID : isom (isom/iso2/avc1/mp41)
File size : 693 MiB
Duration : 1 h 37 min
Overall bit rate mode : Variable
Overall bit rate : 997 kb/s
Writing application : Lavf57.71.100
Video
ID : 1
Format : AVC
Format/Info : Advanced Video Codec
Format profile : Main@L3.1
Format settings : CABAC / 1 Ref Frames
Format settings, CABAC : Yes
Format settings, ReFrames : 1 frame
Format settings, GOP : M=1, N=25
Codec ID : avc1
Codec ID/Info : Advanced Video Coding
Duration : 1 h 37 min
Bit rate mode : Constant
Bit rate : 804 kb/s
Nominal bit rate : 900 kb/s
Width : 1 280 pixels
Height : 720 pixels
Display aspect ratio : 16:9
Frame rate mode : Constant
Frame rate : 30.000 FPS
Color space : YUV
Chroma subsampling : 4:2:0
Bit depth : 8 bits
Scan type : Progressive
Bits/(Pixel*Frame) : 0.029
Stream size : 558 MiB (81%)
Codec configuration box : avcC
Audio
ID : 2
Format : AAC
Format/Info : Advanced Audio Codec
Format profile : LC
Codec ID : mp4a-40-2
Duration : 1 h 37 min
Bit rate mode : Variable
Bit rate : 187 kb/s
Maximum bit rate : 192 kb/s
Channel(s) : 2 channels
Channel positions : Front: L R
Sampling rate : 44.1 kHz
Frame rate : 43.066 FPS (1024 SPF)
Compression mode : Lossy
Stream size : 130 MiB (19%)
Default : Yes
Alternate group : 1
General
Complete name : C:\ОПЦИОНЫ. Станислав Бернухов\Options. Lesson 3 [14.11.2018].mp4
Format : MPEG-4
Format profile : Base Media
Codec ID : isom (isom/iso2/avc1/mp41)
File size : 673 MiB
Duration : 1 h 36 min
Overall bit rate mode : Variable
Overall bit rate : 979 kb/s
Writing application : Lavf57.71.100
Video
ID : 1
Format : AVC
Format/Info : Advanced Video Codec
Format profile : Main@L3.1
Format settings : CABAC / 1 Ref Frames
Format settings, CABAC : Yes
Format settings, ReFrames : 1 frame
Format settings, GOP : M=1, N=25
Codec ID : avc1
Codec ID/Info : Advanced Video Coding
Duration : 1 h 36 min
Bit rate mode : Constant
Bit rate : 784 kb/s
Nominal bit rate : 900 kb/s
Width : 1 280 pixels
Height : 720 pixels
Display aspect ratio : 16:9
Frame rate mode : Constant
Frame rate : 30.000 FPS
Color space : YUV
Chroma subsampling : 4:2:0
Bit depth : 8 bits
Scan type : Progressive
Bits/(Pixel*Frame) : 0.028
Stream size : 539 MiB (80%)
Codec configuration box : avcC
Audio
ID : 2
Format : AAC
Format/Info : Advanced Audio Codec
Format profile : LC
Codec ID : mp4a-40-2
Duration : 1 h 36 min
Bit rate mode : Variable
Bit rate : 192 kb/s
Channel(s) : 2 channels
Channel positions : Front: L R
Sampling rate : 44.1 kHz
Frame rate : 43.066 FPS (1024 SPF)
Compression mode : Lossy
Stream size : 130 MiB (19%)
Default : Yes
Alternate group : 1
General
Complete name : C:\ОПЦИОНЫ. Станислав Бернухов\Options. Lesson 4 [28.11.2018].mp4
Format : MPEG-4
Format profile : Base Media
Codec ID : isom (isom/iso2/avc1/mp41)
File size : 693 MiB
Duration : 1 h 37 min
Overall bit rate mode : Variable
Overall bit rate : 997 kb/s
Writing application : Lavf57.71.100
Video
ID : 1
Format : AVC
Format/Info : Advanced Video Codec
Format profile : Main@L3.1
Format settings : CABAC / 1 Ref Frames
Format settings, CABAC : Yes
Format settings, ReFrames : 1 frame
Format settings, GOP : M=1, N=25
Codec ID : avc1
Codec ID/Info : Advanced Video Coding
Duration : 1 h 37 min
Bit rate mode : Constant
Bit rate : 804 kb/s
Nominal bit rate : 900 kb/s
Width : 1 280 pixels
Height : 720 pixels
Display aspect ratio : 16:9
Frame rate mode : Constant
Frame rate : 30.000 FPS
Color space : YUV
Chroma subsampling : 4:2:0
Bit depth : 8 bits
Scan type : Progressive
Bits/(Pixel*Frame) : 0.029
Stream size : 558 MiB (81%)
Codec configuration box : avcC
Audio
ID : 2
Format : AAC
Format/Info : Advanced Audio Codec
Format profile : LC
Codec ID : mp4a-40-2
Duration : 1 h 37 min
Bit rate mode : Variable
Bit rate : 187 kb/s
Maximum bit rate : 192 kb/s
Channel(s) : 2 channels
Channel positions : Front: L R
Sampling rate : 44.1 kHz
Frame rate : 43.066 FPS (1024 SPF)
Compression mode : Lossy
Stream size : 130 MiB (19%)
Default : Yes
Alternate group : 1
Скриншоты:
Скачать .torrent

Для того, чтобы скачать торрент-файл

Станислав Бернухов - Опционы:простые стратегии для эффективной торговли (2018)

с нашего сайта, Вам необходимо Войти на сайт под своим логином! Если у Вас ещё нет логина, тогда Вам нужно сначала Зарегистрироваться!

Как скачивать? · Что такое торрент? · Правила, FAQ'и, инструкции

     Добавлен      Похожие темы Размер     S  |  L     Торрент
20-Апр-18 10:13 Брюно Жароссон - От Сунь-Цзы до Стива Джобса. Искусство стратегии (2017) Отв. 0 4 MB
48 | 0
Скачать .torrent
23-Фев-18 18:49 Александр Пурнов - Опционы на старт (2017) Отв. 0 8,73 GB
32 | 0
Скачать .torrent
09-Июн-17 10:52 Алексей Всемирнов - Опционы 1.0 - 2.0 - 3.0 (2016) Отв. 0 3,78 GB
8 | 2
Скачать .torrent
10-Апр-17 08:10 Лукьянов Александр | Скальпинг стратегии 2.0 + обновление от 2016 года (2012-2016) PCRec [H.264] Отв. 0 1,57 GB
27 | 2
Скачать .torrent
[Профиль] [ЛС]
Показать сообщения:    
Ответить на тему

Станислав Бернухов - Опционы:простые стратегии для эффективной торговли (2018) скачать торрент (torrent)

Текущее время: 26-Мар 10:39

Часовой пояс: UTC ± 0



Вы не можете начинать темы
Вы не можете отвечать на сообщения
Вы не можете редактировать свои сообщения
Вы не можете удалять свои сообщения
Вы не можете голосовать в опросах
Вы не можете прикреплять файлы к сообщениям
Вы не можете скачивать файлы