Елена Дмитренко, Айдар Губайдуллин, Виталий Кузнецов | Комплект курсов и тренингов по Одноклассникам и соцсетям (2015) PCRec скачать торрент (torrent)

Reply to topic
 
Author Message

admin ®

Gender: Unknown

Longevity: 4 years 5 months

Posts: 822

Post 10-Nov-2016 20:09

[Quote]

-Елена Дмитренко, Айдар Губайдуллин, Виталий Кузнецов | Комплект курсов и тренингов по Одноклассникам и соцсетям (2015) PCRec- Автор (режиссер): Елена Дмитренко, Айдар Губайдуллин, Виталий Кузнецов
Жанр: Продвижение в соцсетях
Продолжительность: 24:00:00
Качество видео: PCRec
Видеокодек: AVC
Битрейт видео: ~37,5-550 kbps
Размер кадра: 546х360-1280х720
Аудиокодек: AAC 2.0
Битрейт аудио: 96-192 kbps (CBR), 2 Ch, 44100 Hz
Описание:
Вы хотите, чтобы Ваш бизнес ехал «на новых лыжах» в 2015 году?
«В новый 2015 на Новых Лыжах», включающая тренинги — бестселлеры, благодаря которым
Ваш бизнес начнет радовать Вас быстрым темпом его развития и увеличения дохода – гарантировано!
1. Подписчики – увеличиваем количество подписчиков, используя самые эффективные, быстрые и выгодные способы набора подписной базы. Тестируем, ведем статистику и выявляем ту рекламу, которая приносит наибольший результат. А так же сводим затраты на рекламу к 2 рублям 75 копеек за подписчика.
2. Создаем продающую систему или увеличиваем эффективность от уже имеющейся в 2-3 раза: авторская рассылка, создание своего инфопродукта или системы привлечения партнеров в МЛМ бизнес. В любом деле важны детали, 20% всех нюансов и деталей, создают 80% успеха бизнеса и желаемого дохода.
3. Создаем и укрепляем личный Бренд, наиболее эффективно внедряя первые 2 пункта, а также создаем множественные источники дохода в Интернет. Вы становитесь популярнее, узнаваемее в своей нише, а доверие подписчиков только возрастает. Это позволяет Вам поднимать стоимость на Ваши инфопродукты с параллельным увеличением количества оплаченных заказов или партнеров в Ваш бизнес, если Вы МЛМ-предприниматель.

Дополнительная информация:

Итак, что включает в себя раздача:
-Мастер-Класс «Подписчики из Одноклассников за 2 рубля 75 копеек»
-Тренинг «Монетизация подписчиков из Одноклассников от А до $»
-Кастомарафон «25 Идей Монетизации Социальных Сетей»
-Мастер-Класс «Как за 2 недели запустить релиз в новой теме и заработать 170 000 рублей»
-Запись внутреннего круга «Самые эффективные методы входящего потока подписчиков или как за 7 дней привлечь 1000 подписчиков»
-Набор Видеоинструкций на 43 мин 49 сек «Арсенал качественных картинок»
-15 готовых шаблонов сайтов страниц захвата
-Полная интеллект-карта по специфике размещения объявлений в ОК + Аудио-пояснение к ней. Пошаговая интеллект-карта по поиску тематических групп в ОК
-PDF – книга по созданию в 4 шага рекламных объявлений + скриншоты видео-уроков
-PDF-Бери и запускай! Готовые шаблоны рекламных объявлений: 50 заголовков, 50 текстов и 100 картинок.
-Готовые письма администраторам групп для получения скидки на рекламу
-Рабочая тетрадь по плановому запуску рекламной кампании.
-Готовая волшебная Excel-таблица, которая, сама считает за Вас эффективность рекламной кампании.
-Интеллект-карта по масштабному запуску рекламной кампании в развернутом виде + пояснение к ней в аудио формате.

Подробная информация

http://elenadmitrenko.ru/2015/

MediaInfo:

Общее
Формат : MPEG-4
Профиль формата : Base Media / Version 2
Идентификатор кодека : mp42
Размер файла : 434 Мбайт
Режим общего битрейта : Переменный
Общий поток : 745 Кбит/сек
Видео
Идентификатор : 1
Формат : AVC
Формат/Информация : Advanced Video Codec
Профиль формата : High@L3.1
Параметр CABAC формата : Да
Параметр ReFrames формата : 1 кадр
Параметр GOP формата : M=1, N=60
Идентификатор кодека : avc1
Идентификатор кодека/Информация : Advanced Video Coding
Битрейт : 550 Кбит/сек
Максимальный битрейт : 5077 Кбит/сек
Ширина : 1280 пикселей
Высота : 720 пикселей
Соотношение сторон : 16:9
Режим частоты кадров : Постоянный
Частота кадров : 30,000 кадров/сек
Цветовое пространство : YUV
Субдискретизация насыщенности : 4:2:0
Битовая глубина : 8 бит
Тип развёртки : Прогрессивная
Бит/(Пиксели*Кадры) : 0.020
Размер потока : 320 Мбайт (74%)
Аудио
Идентификатор : 2
Формат : AAC
Формат/Информация : Advanced Audio Codec
Профиль формата : LC
Идентификатор кодека : 40
Вид битрейта : Переменный
Битрейт : 192 Кбит/сек
Максимальный битрейт : 201 Кбит/сек
Каналы : 2 канала
Расположение каналов : Front: L R
Частота : 44,1 КГц
Метод сжатия : С потерями
Размер потока : 112 Мбайт (26%)
Скриншоты:
Время раздачи: Круглосуточно
Скачать .torrent

Для того, чтобы скачать торрент-файл

Елена Дмитренко, Айдар Губайдуллин, Виталий Кузнецов | Комплект курсов и тренингов по Одноклассникам и соцсетям (2015) PCRec

с нашего сайта, Вам необходимо Войти на сайт под своим логином! Если у Вас ещё нет логина, тогда Вам нужно сначала Зарегистрироваться!

How to Download? · What is a torrent? · Правила, FAQ'и, инструкции

     Added      Похожие темы Size     S  |  L     Торрент
11-Nov-18 08:43 Денис Кузнецов, Юрий Терехов - 150 драйверов роста прибыли, или Как увеличить бизнес в 10 раз (2018) Replies 0 2 MB
30 | 0
Download .torrent
20-Apr-18 10:12 Елена Николаева - Делай сегодня! Опыт 64 успешных российских стартапов (2018) Replies 0 4 MB
22 | 0
Download .torrent
20-Apr-18 10:12 Елена Котова - Откуда берутся деньги, Карл? Природа богатства и причины бедности (2018) Replies 0 11 MB
10 | 0
Download .torrent
23-Dec-17 11:48 Елена Котова - Откуда берутся деньги, Карл? Природа богатства и причины бедности (2018) Replies 0 1 MB
10 | 0
Download .torrent
23-Dec-17 11:46 Елена Ветлужских - Генеральный директор. Ценный опыт (2012) Replies 0 27 MB
2 | 0
Download .torrent
[Profile] [PM]
Display posts:    
Reply to topic

Елена Дмитренко, Айдар Губайдуллин, Виталий Кузнецов | Комплект курсов и тренингов по Одноклассникам и соцсетям (2015) PCRec скачать торрент (torrent)

Current time is: 21-Aug 12:49

All times are UTC ± 0



You cannot post new topics in this forum
You cannot reply to topics in this forum
You cannot edit your posts in this forum
You cannot delete your posts in this forum
You cannot vote in polls in this forum
You cannot attach files in this forum
You cannot download files in this forum