LocusMEDIA | Одностраничник под ключ (2015) PCRec, CamRip скачать торрент (torrent)

Ответить на тему
 
Автор Сообщение

admin ®

Пол: Не указан

Стаж: 3 года 6 месяцев

Сообщений: 820

Создавать темы 10-Ноя-2016 20:10

[Цитировать]

-LocusMEDIA | Одностраничник под ключ (2015) PCRec, CamRip- Автор (режиссер): Александр Залогин
Жанр: Бизнес
Продолжительность: 12:48:39
Качество видео: PCRec, CamRip
Видеокодек: AVC
Битрейт видео: ~1097 kbps
Размер кадра: 1200x900-1920x1080
Аудиокодек: AAC 2.0
Битрейт аудио: 251 kbps (CBR), 2 Ch, 44100 Hz
Описание:
Одностраничник под ключ — это комплексная программа по быстрому запуску уже
готовых товарных одностраничных сайтов, приносящих прибыль.

Чем конкретно мы будем заниматься
в проекте «Одностраничник под ключ»?

Теоретическая основа для старта
  • Какие преимущества у бизнеса с одностраничными сайтами?
  • Какие типовые проблемы и способы их решения существуют?
  • Почему на старте необходимо использовать 1 из 3 моделей работы с одностраничными сайтами?
  • Как работать с клиентами и поставщиками?
  • Как настроить эффективную реклама одностраничного интернет-магазина?
  • Как передать управление наемному сотруднику?
Как найти лучшие товары для продажи? Нишевание
  • 5 простых способов определения рынка?
  • Как определить размер рынка?
  • Как понять оптимальный размер наценки?
  • Как просчитать “потолок” прибыли?
  • Как выявить основные и дополнительные потребности целевой аудитории?
  • Как использовать дополнительные источники трафика в Вашей нише?
Как решить все технические проблемы Вашего нового бизнеса?
  • Базовые технические моменты – домен, хостинг, сайты. Что с этим делать?
  • Как получить простые технические решения для быстрого старта бизнеса?
  • Как грамотно организовать прием платежей на своем сайте?
  • Как назвать свой одностраничный сайт?
  • Как увеличить конверсию при помощи технических “новинок” в области интернет-продаж?
  • Что делать, если Вы полный новичок в создании сайтов?
  • Какой дизайн использовать для собственного одностраничного сайта?
Как работать с поставщиками и посредниками?
  • Как работать с 5 основными типами поставщиков?
  • Где найти поставщика с богатым выбором товаров?
  • Как работать по модели посредничества?
  • Как добиться лучшей цены от поставщика?
  • Как импортировать товары для ваших клиентов из-за рубежа, без проблем с таможней?
  • Как получить продукты, непосредственно от китайских заводов по самым низким ценам?
  • Где в России найти товары по очень выгодной стоимости?
  • Что нужно для юридической безопасности работы с поставщиком?
Как грамотно работать с клиентами?
  • Что нужно сделать с клиентом для быстрой продажи?
  • Как легко закрывать возражения и продавать больше товаров?
  • Как снизить процент невыкупов и возвратов?
  • Как максимизировать прибыль с 1 клиента?
  • Как собрать свою полную клиентскую базу?
  • Что и как писать людям на Email для дальнейших продаж?
  • Как правильно продавать постоянным клиентам?
  • Как использовать СМС рассылки для увеличения продаж?
  • Что можно дополнительно и выгодно продать? Upsell.
  • Как выстроить грамотное постпродажное обслуживание?
  • Что и когда говорить клиентам по телефону?
Как привлечь массу клиентов для продаж в Вашем одностраничном сайте?
  • Как генерировать трафик с помощью бесплатных приемов маркетинга?
  • Как настроить ПРИБЫЛЬНУЮ и НЕДОРОГУЮ рекламу в социальной сети “Вконтакте”?
  • Что нужно знать о тизерных сетях?
  • Как настроить рекламу в тизерах?
  • Какие неочевидные способы и модели рекламы можно использовать?
  • Что нужно сделать перед тем, как вложить деньги в рекламу?
Как вырасти в полноценный интернет-магазин?
  • Как модель одностраничника может соприкасаться с интернет-магазином?
  • Какие для этого нужны документы?
  • Как работать с поставщиками?
  • Как организовать стабильный оптовый сбыт по всей стране?
  • Как монополизировать нишу?
  • Как с помощью грамотного оптового предложения увеличить продажи в несколько раз?
Аутсорсинг на все 100%
  • Какие процессы можно отдать на аутсорс и как это сделать?
  • По каким критериям выбириать аутсорсинговые компании?
  • Как избежать рисков при аутсорсинге?
  • Какие необходимые условия для аутсорсинга следует соблюсти?
  • Как осуществлять полностью удаленный контроль за оффлайн-процессами?
  • Как нанять и конктролировать сотрудников?
  • Что нужно для дальнейшего роста вашего бизнеса?
20 готовых продающих одностраничников
БОЛЬШЕ НИКАКИХ ТЕСТОВ НИШ!
  • Все одностраничники продают ТОЛЬКО проверенные нами,
    максимально востребованные товары.
  • Одностраничники имеют уникальный дизайн и
    богатейший функционал.
ПОЛНАЯ ИНТЕГРАЦИЯ С: Вот несколько скриншотов сайтов, которые Вы получите:

MediaInfo:

Общее
Полное имя : D:\Загрузки\Одностраничник\fl\01. Вводная информация.mp4
Формат : MPEG-4
Профиль формата : Base Media
Идентификатор кодека : isom
Размер файла : 57,7 Мбайт
Продолжительность : 5 м. 56 с.
Общий поток : 1356 Кбит/сек
Программа кодирования : Lavf55.42.100
Видео
Идентификатор : 1
Формат : AVC
Формат/Информация : Advanced Video Codec
Профиль формата : Main@L4
Параметр CABAC формата : Да
Параметр ReFrames формата : 5 кадров
Параметр GOP формата : M=4, N=25
Идентификатор кодека : avc1
Идентификатор кодека/Информация : Advanced Video Coding
Продолжительность : 5 м. 56 с.
Битрейт : 1097 Кбит/сек
Ширина : 1200 пикселей
Высота : 900 пикселей
Соотношение сторон : 4:3
Режим частоты кадров : Постоянный
Частота кадров : 30,000 кадров/сек
Цветовое пространство : YUV
Субдискретизация насыщенности : 4:2:0
Битовая глубина : 8 бит
Тип развёртки : Прогрессивная
Бит/(Пиксели*Кадры) : 0.034
Размер потока : 46,7 Мбайт (81%)
Аудио
Идентификатор : 2
Формат : AAC
Формат/Информация : Advanced Audio Codec
Профиль формата : LC
Идентификатор кодека : 40
Продолжительность : 5 м. 56 с.
Вид битрейта : Постоянный
Битрейт : 251 Кбит/сек
Каналы : 2 канала
Расположение каналов : Front: L R
Частота : 44,1 КГц
Метод сжатия : С потерями
Размер потока : 10,7 Мбайт (19%)
Скриншоты:
Время раздачи: с 09:00 до 21:00
Скачать .torrent

Для того, чтобы скачать торрент-файл

LocusMEDIA | Одностраничник под ключ (2015) PCRec, CamRip

с нашего сайта, Вам необходимо Войти на сайт под своим логином! Если у Вас ещё нет логина, тогда Вам нужно сначала Зарегистрироваться!

Как скачивать? · Что такое торрент? · Правила, FAQ'и, инструкции

     Добавлен      Похожие темы Размер     S  |  L     Торрент
07-Сен-18 10:00 Эдгар Шейн - Слушать нельзя указывать. Альтернатива жесткому менеджменту (2015) Отв. 0 551 KB
134 | 0
Скачать .torrent
07-Сен-18 09:59 Генри Форд - Сборник книг [5 книг] (1920 - 2015) Отв. 0 6 MB
124 | 4
Скачать .torrent
07-Сен-18 09:58 Питер Фердинанд Друкер - Практика менеджмента (2015) Отв. 0 2 MB
120 | 0
Скачать .torrent
08-Июн-18 13:42 Подборка - Книги по бизнесу [80 книг] (2015) Отв. 0 33 MB
78 | 0
Скачать .torrent
23-Фев-18 18:49 Роман Пузат, Евгений Кошкин - Выгодные Сайты [Четырёхдневный курс по покупке/продаже сайтов] (2015) Отв. 0 2,7 GB
30 | 0
Скачать .torrent
[Профиль] [ЛС]

pivopiyca

Пол: Не указан

Стаж: 6 месяцев 11 дней

Сообщений: 2

Создавать темы 07-Июл-2018 16:08 (спустя 1 год 7 месяцев)

[Цитировать]

Спасибо!
[Профиль] [ЛС]
Показать сообщения:    
Ответить на тему

LocusMEDIA | Одностраничник под ключ (2015) PCRec, CamRip скачать торрент (torrent)

Текущее время: 18-Сен 19:40

Часовой пояс: UTC ± 0



Вы не можете начинать темы
Вы не можете отвечать на сообщения
Вы не можете редактировать свои сообщения
Вы не можете удалять свои сообщения
Вы не можете голосовать в опросах
Вы не можете прикреплять файлы к сообщениям
Вы не можете скачивать файлы