Александр Балыков - Мастер-класс по заработку в интернете (2018) скачать торрент (torrent)

Ответить на тему
 
Автор Сообщение

ruwiki ®

Пол: Не указан

Стаж: 3 года 5 месяцев

Сообщений: 1834

Создавать темы 07-Фев-2018 19:01

[Цитировать]

Александр Балыков | Мастер-класс по заработку в интернете (2018) PCRec [H.264/720p-LQ]- Автор (режиссер): Александр Балыков
Жанр: Бизнес
Описание:
Мастер-класс по заработку в партнерских программах в интернете, в мастер-классе даются разъяснения как вступить в партнерские программы, всевозможные фишки как и где искать трафик для привлечения клиентов, и сколько на этом можно зарабатывать.
Продолжительность: 05:24:31
Качество видео: PCRec
Видео: AVC/H.264, 1280x720, ~149 Kbps
Аудио: AAC, 2 ch, 126 Kbps

Mediainfo:

Общее
Полное имя : D:\Тренинги\Зароботок в интернете\1.Алксандр Балыков - Академия интернет профессий\Как зарабатывать на партнерских программах от 50000 рублей. Пошаговый план заработка на партнерках..mp4
Формат : MPEG-4
Профиль формата : Base Media / Version 2
Идентификатор кодека : mp42 (isom/mp42)
Размер файла : 647 Мбайт
Продолжительность : 5 ч. 24 м.
Режим общего битрейта : Переменный
Общий поток : 279 Кбит/сек
Дата кодирования : UTC 2017-07-06 21:54:15
Дата пометки : UTC 2017-07-06 21:54:15
gsst : 0
gstd : 19470791
Видео
Идентификатор : 1
Формат : AVC
Формат/Информация : Advanced Video Codec
Профиль формата : Main@L3.1
Настройки формата : CABAC / 3 Ref Frames
Параметр CABAC формата : Да
Параметр RefFrames формата : 3 кадра
Идентификатор кодека : avc1
Идентификатор кодека/Информация : Advanced Video Coding
Продолжительность : 5 ч. 24 м.
Битрейт : 149 Кбит/сек
Ширина : 1280 пикселей
Высота : 720 пикселей
Соотношение сторон : 16:9
Режим частоты кадров : Постоянный
Частота кадров : 30,000 кадров/сек
Цветовое пространство : YUV
Субдискретизация насыщенности : 4:2:0
Битовая глубина : 8 бит
Тип развёртки : Прогрессивная
Бит/(Пиксели*Кадры) : 0.005
Размер потока : 347 Мбайт (54%)
Заголовок : ISO Media file produced by Google Inc.
Дата кодирования : UTC 2017-07-06 21:54:15
Дата пометки : UTC 2017-07-06 21:54:15
Цветовой диапазон : Limited
Основные цвета : BT.709
Характеристики трансфера : BT.709
Коэффициенты матрицы : BT.709
Аудио
Идентификатор : 2
Формат : AAC
Формат/Информация : Advanced Audio Codec
Профиль формата : LC
Идентификатор кодека : mp4a-40-2
Продолжительность : 5 ч. 24 м.
Вид битрейта : Переменный
Битрейт : 126 Кбит/сек
Каналы : 2 канала
Расположение каналов : Front: L R
Частота : 44,1 КГц
Частота кадров : 43,066 кадра/сек (1024 SPF)
Метод сжатия : С потерями
Размер потока : 292 Мбайт (45%)
Заголовок : ISO Media file produced by Google Inc.
Дата кодирования : UTC 2017-07-06 21:54:15
Дата пометки : UTC 2017-07-06 21:54:15
Скриншоты:
Скачать .torrent

Для того, чтобы скачать торрент-файл

Александр Балыков - Мастер-класс по заработку в интернете (2018)

с нашего сайта, Вам необходимо Войти на сайт под своим логином! Если у Вас ещё нет логина, тогда Вам нужно сначала Зарегистрироваться!

Как скачивать? · Что такое торрент? · Правила, FAQ'и, инструкции

     Добавлен      Похожие темы Размер     S  |  L     Торрент
07-Сен-18 09:59 Евгений Козлов, Дмитрий Кудряшов - Администратор Instagram. Руководство по заработку (2018) Отв. 0 2 MB
100 | 0
Скачать .torrent
08-Июн-18 13:43 Юрий Павлов, Александр Макушев - Не хочешь оказаться за бортом бизнеса? Читай и делай! (2018) Отв. 0 10 MB
54 | 0
Скачать .torrent
20-Апр-18 10:14 Мария Солодар - Воронка продаж в интернете. Инструмент автоматизации продаж и повышения среднего чека в бизнесе (2018) Отв. 0 5 MB
52 | 0
Скачать .torrent
23-Фев-18 18:49 Александр Пурнов - Опционы на старт (2017) Отв. 0 8,73 GB
14 | 0
Скачать .torrent
07-Фев-18 19:01 Александр Редькин - 7 профессий для быстрого заработка в Интернете (2018) Отв. 0 39 MB
26 | 2
Скачать .torrent
[Профиль] [ЛС]
Показать сообщения:    
Ответить на тему

Александр Балыков - Мастер-класс по заработку в интернете (2018) скачать торрент (torrent)

Текущее время: 19-Окт 01:11

Часовой пояс: UTC ± 0



Вы не можете начинать темы
Вы не можете отвечать на сообщения
Вы не можете редактировать свои сообщения
Вы не можете удалять свои сообщения
Вы не можете голосовать в опросах
Вы не можете прикреплять файлы к сообщениям
Вы не можете скачивать файлы