Михаил Русаков - Своя Web-студия за 55 дней (2017) скачать торрент (torrent)

Ответить на тему
 
Автор Сообщение

ruwiki ®

Пол: Не указан

Стаж: 3 года 5 месяцев

Сообщений: 1834

Создавать темы 20-Апр-2018 10:13

[Цитировать]

Михаил Русаков | Своя Web-студия за 55 дней (2017) PCRec [H.264] - Автор (режиссер): Михаил Русаков
Жанр: Видеокурс
Описание:
В курсе Михаила Русакова пошагово описана методология создания проекта, технические нюансы и рекомендации, биржи, которые понадобятся для поиска работников. Открыть web-студию может любой, но как сделать это так, чтобы она с первых дней начала приносить доход?
Преимущества такого проекта очевидны. Никаких съемных помещений, работа из любой точки мира и минимальные вложения. Пройдя курс, вы научитесь правилам общения с заказчиком, построите четкий план действий, получите мотивационный толчок.
Продолжительность: 09:00:50
Качество видео: PCRec
Видео: AVC/H.264, 1064x600, ~47-642 Kbps
Аудио: AAC, 2 ch, 130-131 Kbps

Mediainfo:

Общее
Полное имя : .\55\6_9 Заключение.mp4
Формат : MPEG-4
Профиль формата : Base Media
Идентификатор кодека : isom (isom/iso2/avc1/mp41)
Размер файла : 5,28 Мбайт
Продолжительность : 4 м. 0 с.
Режим общего битрейта : Переменный
Общий поток : 185 Кбит/сек
Дата кодирования : UTC 1970-01-01 00:00:00
Дата пометки : UTC 1970-01-01 00:00:00
Программа кодирования : Lavf52.34.0
Видео
Идентификатор : 1
Формат : AVC
Формат/Информация : Advanced Video Codec
Профиль формата : High@L3.2
Настройки формата : CABAC / 4 Ref Frames
Параметр CABAC формата : Да
Параметр RefFrames формата : 4 кадра
Идентификатор кодека : avc1
Идентификатор кодека/Информация : Advanced Video Coding
Продолжительность : 4 м. 0 с.
Битрейт : 47,8 Кбит/сек
Ширина : 1064 пикселя
Высота : 600 пикселей
Соотношение сторон : 16:9
Режим частоты кадров : Постоянный
Частота кадров : 59,940 (60000/1001) кадров/сек
Частота кадров в оригинале : 60,000 кадров/сек
Цветовое пространство : YUV
Субдискретизация насыщенности : 4:2:0
Битовая глубина : 8 бит
Тип развёртки : Прогрессивная
Бит/(Пиксели*Кадры) : 0.001
Размер потока : 1,37 Мбайт (26%)
Дата кодирования : UTC 1970-01-01 00:00:00
Дата пометки : UTC 1970-01-01 00:00:00
Аудио
Идентификатор : 2
Формат : AAC
Формат/Информация : Advanced Audio Codec
Профиль формата : LC
Идентификатор кодека : mp4a-40-2
Продолжительность : 4 м. 0 с.
Вид битрейта : Переменный
Битрейт : 132 Кбит/сек
Каналы : 2 канала
Расположение каналов : Front: L R
Частота : 44,1 КГц
Частота кадров : 43,066 кадра/сек (1024 SPF)
Метод сжатия : С потерями
Размер потока : 3,73 Мбайт (71%)
Дата кодирования : UTC 1970-01-01 00:00:00
Дата пометки : UTC 1970-01-01 00:00:00

Программа курса:

  • Основы web-студии, организационные моменты;
  • Создание сайта, выбор прототипа и исполнителя;
  • Размещение и продвижение проекта в интернете;
  • Прием заказов, оптимизация рекламной кампании;
  • Полная автоматизация, контроль персонала, пассивный доход.
Скриншоты:
Скачать .torrent

Для того, чтобы скачать торрент-файл

Михаил Русаков - Своя Web-студия за 55 дней (2017)

с нашего сайта, Вам необходимо Войти на сайт под своим логином! Если у Вас ещё нет логина, тогда Вам нужно сначала Зарегистрироваться!

Как скачивать? · Что такое торрент? · Правила, FAQ'и, инструкции

     Добавлен      Похожие темы Размер     S  |  L     Торрент
08-Авг-18 10:00 Андрей Сычев, Михаил Мамаев - Теория заговора. Как нас обманывают в магазинах (2018) Отв. 0 1 MB
94 | 0
Скачать .torrent
12-Май-18 02:52 Владислав Малий, Михаил Золенко - SEO на экспорт. Первая книга по продвижению за рубежом (2017) Отв. 0 990 KB
58 | 0
Скачать .torrent
23-Дек-17 11:45 Михаил Воронин - Прыжок в мечту, или Продажи в B2B. Как выигрывать в два раза больше корпоративных тендеров (2017) Отв. 0 7 MB
26 | 0
Скачать .torrent
07-Ноя-17 07:57 Алексей Рязанцев, Петр Кудасов - Холодные звонки. От знакомства до сделки за 50 дней (2017) Отв. 0 2 MB
24 | 2
Скачать .torrent
[Профиль] [ЛС]
Показать сообщения:    
Ответить на тему

Михаил Русаков - Своя Web-студия за 55 дней (2017) скачать торрент (torrent)

Текущее время: 22-Окт 12:52

Часовой пояс: UTC ± 0



Вы не можете начинать темы
Вы не можете отвечать на сообщения
Вы не можете редактировать свои сообщения
Вы не можете удалять свои сообщения
Вы не можете голосовать в опросах
Вы не можете прикреплять файлы к сообщениям
Вы не можете скачивать файлы