Максим Яковенко - Обучение торговле криптовалютами (2017) скачать торрент (torrent)

Reply to topic
 
Author Message

ruwiki ®

Gender: Unknown

Longevity: 4 years 3 months

Posts: 2048

Post 04-Mar-2019 13:25

[Quote]

Максим Яковенко | Обучение торговле криптовалютами (2017) PCRec [H.264/720p-LQ]- Автор (режиссер): Максим Яковенко
Жанр: Трейдинг
Описание:
Для кого данный курс - для желающих любого уровня знаний и возраста.
После данного курса вы сможете самостоятельно инвестировать в криптовалюты, либо спекулировать на любых интервалах.
Продолжительность: 02:57:08
Качество видео: PCRec
Видео: AVC/H.264, 1280x720-670, ~311 Kbps
Аудио: AAC, 2 ch, 126 Kbps

Mediainfo:

General
Complete name : F:\HAMAHA - ОБУЧЕНИЕ ТОРГОВЛИ КРИПТОВАЛЮТАМИ\1.mp4
Format : MPEG-4
Format profile : Base Media / Version 2
Codec ID : mp42 (isom/mp42)
File size : 52.2 MiB
Duration : 16 min 32 s
Overall bit rate mode : Variable
Overall bit rate : 441 kb/s
Encoded date : UTC 2017-07-03 10:57:41
Tagged date : UTC 2017-07-03 10:57:41
gsst : 0
gstd : 992954
Video
ID : 1
Format : AVC
Format/Info : Advanced Video Codec
Format profile : Main@L3.1
Format settings : CABAC / 3 Ref Frames
Format settings, CABAC : Yes
Format settings, ReFrames : 3 frames
Codec ID : avc1
Codec ID/Info : Advanced Video Coding
Duration : 16 min 32 s
Bit rate : 312 kb/s
Width : 1 280 pixels
Height : 670 pixels
Display aspect ratio : 1.910
Frame rate mode : Constant
Frame rate : 30.000 FPS
Color space : YUV
Chroma subsampling : 4:2:0
Bit depth : 8 bits
Scan type : Progressive
Bits/(Pixel*Frame) : 0.012
Stream size : 36.9 MiB (71%)
Title : ISO Media file produced by Google Inc.
Encoded date : UTC 2017-07-03 10:57:41
Tagged date : UTC 2017-07-03 10:57:41
Color range : Limited
Color primaries : BT.709
Transfer characteristics : BT.709
Matrix coefficients : BT.601
Codec configuration box : avcC
Audio
ID : 2
Format : AAC
Format/Info : Advanced Audio Codec
Format profile : LC
Codec ID : mp4a-40-2
Duration : 16 min 32 s
Bit rate mode : Variable
Bit rate : 126 kb/s
Channel(s) : 2 channels
Channel positions : Front: L R
Sampling rate : 44.1 kHz
Frame rate : 43.066 FPS (1024 SPF)
Compression mode : Lossy
Stream size : 14.9 MiB (28%)
Title : ISO Media file produced by Google Inc.
Encoded date : UTC 2017-07-03 10:57:41
Tagged date : UTC 2017-07-03 10:57:41
General
Complete name : F:\HAMAHA - ОБУЧЕНИЕ ТОРГОВЛИ КРИПТОВАЛЮТАМИ\2.mp4
Format : MPEG-4
Format profile : Base Media / Version 2
Codec ID : mp42 (isom/mp42)
File size : 27.7 MiB
Duration : 12 min 34 s
Overall bit rate mode : Variable
Overall bit rate : 308 kb/s
Encoded date : UTC 2017-08-26 05:33:45
Tagged date : UTC 2017-08-26 05:33:45
gsst : 0
gstd : 755020
Video
ID : 1
Format : AVC
Format/Info : Advanced Video Codec
Format profile : Main@L3.1
Format settings : CABAC / 3 Ref Frames
Format settings, CABAC : Yes
Format settings, ReFrames : 3 frames
Codec ID : avc1
Codec ID/Info : Advanced Video Coding
Duration : 12 min 34 s
Bit rate : 179 kb/s
Width : 1 280 pixels
Height : 716 pixels
Display aspect ratio : 16:9
Frame rate mode : Constant
Frame rate : 30.000 FPS
Color space : YUV
Chroma subsampling : 4:2:0
Bit depth : 8 bits
Scan type : Progressive
Bits/(Pixel*Frame) : 0.007
Stream size : 16.1 MiB (58%)
Title : ISO Media file produced by Google Inc.
Encoded date : UTC 2017-08-26 05:33:45
Tagged date : UTC 2017-08-26 05:33:45
Color range : Limited
Color primaries : BT.709
Transfer characteristics : BT.709
Matrix coefficients : BT.601
Codec configuration box : avcC
Audio
ID : 2
Format : AAC
Format/Info : Advanced Audio Codec
Format profile : LC
Codec ID : mp4a-40-2
Duration : 12 min 34 s
Bit rate mode : Variable
Bit rate : 126 kb/s
Channel(s) : 2 channels
Channel positions : Front: L R
Sampling rate : 44.1 kHz
Frame rate : 43.066 FPS (1024 SPF)
Compression mode : Lossy
Stream size : 11.3 MiB (41%)
Title : ISO Media file produced by Google Inc.
Encoded date : UTC 2017-08-26 05:33:45
Tagged date : UTC 2017-08-26 05:33:45
General
Complete name : F:\HAMAHA - ОБУЧЕНИЕ ТОРГОВЛИ КРИПТОВАЛЮТАМИ\3.mp4
Format : MPEG-4
Format profile : Base Media / Version 2
Codec ID : mp42 (isom/mp42)
File size : 32.6 MiB
Duration : 10 min 3 s
Overall bit rate mode : Variable
Overall bit rate : 453 kb/s
Encoded date : UTC 2017-09-08 06:25:25
Tagged date : UTC 2017-09-08 06:25:25
gsst : 0
gstd : 603509
Video
ID : 1
Format : AVC
Format/Info : Advanced Video Codec
Format profile : Main@L3.1
Format settings : CABAC / 3 Ref Frames
Format settings, CABAC : Yes
Format settings, ReFrames : 3 frames
Codec ID : avc1
Codec ID/Info : Advanced Video Coding
Duration : 10 min 3 s
Bit rate : 324 kb/s
Width : 1 280 pixels
Height : 720 pixels
Display aspect ratio : 16:9
Frame rate mode : Constant
Frame rate : 30.000 FPS
Color space : YUV
Chroma subsampling : 4:2:0
Bit depth : 8 bits
Scan type : Progressive
Bits/(Pixel*Frame) : 0.012
Stream size : 23.3 MiB (71%)
Title : ISO Media file produced by Google Inc. Created on: 09/07/2017.
Encoded date : UTC 2017-09-08 06:25:25
Tagged date : UTC 2017-09-08 06:25:25
Color range : Limited
Color primaries : BT.709
Transfer characteristics : BT.709
Matrix coefficients : BT.601
Codec configuration box : avcC
Audio
ID : 2
Format : AAC
Format/Info : Advanced Audio Codec
Format profile : LC
Codec ID : mp4a-40-2
Duration : 10 min 3 s
Bit rate mode : Variable
Bit rate : 126 kb/s
Channel(s) : 2 channels
Channel positions : Front: L R
Sampling rate : 44.1 kHz
Frame rate : 43.066 FPS (1024 SPF)
Compression mode : Lossy
Stream size : 9.03 MiB (28%)
Title : ISO Media file produced by Google Inc. Created on: 09/07/2017.
Encoded date : UTC 2017-09-08 06:25:25
Tagged date : UTC 2017-09-08 06:25:25
General
Complete name : F:\HAMAHA - ОБУЧЕНИЕ ТОРГОВЛИ КРИПТОВАЛЮТАМИ\4.mp4
Format : MPEG-4
Format profile : Base Media / Version 2
Codec ID : mp42 (isom/mp42)
File size : 36.2 MiB
Duration : 11 min 46 s
Overall bit rate mode : Variable
Overall bit rate : 430 kb/s
Encoded date : UTC 2017-09-07 04:23:17
Tagged date : UTC 2017-09-07 04:23:17
gsst : 0
gstd : 706792
Video
ID : 1
Format : AVC
Format/Info : Advanced Video Codec
Format profile : Main@L3.1
Format settings : CABAC / 3 Ref Frames
Format settings, CABAC : Yes
Format settings, ReFrames : 3 frames
Codec ID : avc1
Codec ID/Info : Advanced Video Coding
Duration : 11 min 46 s
Bit rate : 300 kb/s
Width : 1 280 pixels
Height : 720 pixels
Display aspect ratio : 16:9
Frame rate mode : Constant
Frame rate : 30.000 FPS
Color space : YUV
Chroma subsampling : 4:2:0
Bit depth : 8 bits
Scan type : Progressive
Bits/(Pixel*Frame) : 0.011
Stream size : 25.3 MiB (70%)
Title : ISO Media file produced by Google Inc. Created on: 09/06/2017.
Encoded date : UTC 2017-09-07 04:23:17
Tagged date : UTC 2017-09-07 04:23:17
Color range : Limited
Color primaries : BT.709
Transfer characteristics : BT.709
Matrix coefficients : BT.601
Codec configuration box : avcC
Audio
ID : 2
Format : AAC
Format/Info : Advanced Audio Codec
Format profile : LC
Codec ID : mp4a-40-2
Duration : 11 min 46 s
Bit rate mode : Variable
Bit rate : 126 kb/s
Channel(s) : 2 channels
Channel positions : Front: L R
Sampling rate : 44.1 kHz
Frame rate : 43.066 FPS (1024 SPF)
Compression mode : Lossy
Stream size : 10.6 MiB (29%)
Title : ISO Media file produced by Google Inc. Created on: 09/06/2017.
Encoded date : UTC 2017-09-07 04:23:17
Tagged date : UTC 2017-09-07 04:23:17

Программа обучения включает в себя:

1. Введение в крипто рынок. Регистрация на бирже. Выбор биржи и кошелька.
2. Безопасность счета и кошелька. Как оградить себя от хакеров и мошенников.
3. Психология. Построение торгового процесса. Учимся вести дневник сделок. Создаем психологический дневник. Создаем рутину. Вырабатываем трейдерские привычки.
4. Технический анализ. Свечной анализ. Изучение паттернов и формаций крипто рынка. Анализ объемов и VSA. Работа с уровнями.
5. Риск менеджмент. Работа с рисками и торговыми стопами.
6. Создаем индивидуальный торговый алгоритм. Строим торговую систему. Формируем торговые правила.
7. Краткосрочная торговля. Swing Trading, спекулятивные сделки на несколько дней.
8. Техники разгона депозита.
9. Short trading. Короткие продажи. Торговля на понижение. Как зарабатывать на падении рынка.
10. Долгосрочный трейдинг. Формирование инвестиционного портфеля.
11. Фундаментальный анализ монет. Учим отличать качественные монеты от пустышек.
Скриншоты:
Скачать .torrent

Для того, чтобы скачать торрент-файл

Максим Яковенко - Обучение торговле криптовалютами (2017)

с нашего сайта, Вам необходимо Войти на сайт под своим логином! Если у Вас ещё нет логина, тогда Вам нужно сначала Зарегистрироваться!

How to Download? · What is a torrent? · Правила, FAQ'и, инструкции

     Added      Похожие темы Size     S  |  L     Торрент
08-Aug-19 12:24 Олег Тиньков, Максим Ильяхов - Бизнес без MBA (2019) Replies 0 11 MB
90 | 0
Download .torrent
03-Apr-19 10:18 Максим Котин - И ботаники делают бизнес 1+2. Удивительная история основателя «Додо Пиццы» Федора Овчинникова. От провала до миллиона (2018) Replies 0 13 MB
38 | 4
Download .torrent
19-Jan-19 10:10 Максим Ильяхов, Людмила Сарычева - Новые правила деловой переписки (2018) Replies 0 330 MB
32 | 0
Download .torrent
11-Nov-18 08:41 Вячеслав Носко, Максим Бурков - Книга о криптовалюте № 1 (2018) Replies 0 1 MB
20 | 0
Download .torrent
[Profile] [PM]
Display posts:    
Reply to topic

Максим Яковенко - Обучение торговле криптовалютами (2017) скачать торрент (torrent)

Current time is: 21-Aug 12:02

All times are UTC ± 0



You cannot post new topics in this forum
You cannot reply to topics in this forum
You cannot edit your posts in this forum
You cannot delete your posts in this forum
You cannot vote in polls in this forum
You cannot attach files in this forum
You cannot download files in this forum