Артём Нестеренко - Большая игра в МЛМ (2019) скачать торрент (torrent)

Reply to topic
 
Author Message

ruwiki ®

Gender: Unknown

Longevity: 4 years 5 months

Posts: 374

Post 08-Aug-2019 12:25

[Quote]

Артём Нестеренко | Большая игра в МЛМ (2019) WEB-DL [H.264]- Автор (режиссер): Артём Нестеренко
Производство: Украина
Жанр: Обучающий курс
Описание:
Большая игра в МЛМ или как 300 человек каждый день будут знакомиться с Вашим бизнес-предложением.
Станьте частью воркшоп-коучинга и всего за 3 месяца под моим руководством запустите систему вовлечения и спонсирования людей в Ваш бизнес через Интернет, начав зарабатывать в первый же месяц.
Продолжительность: 107:39:56
Качество видео: WEB-DL
Видео: AVC/H.264, 458-1280х360-720, ~1180 Kbps
Аудио: AAC, 2 ch, 96-128 Kbps

MediaInfo:

Общее
Полное имя : C:\Большая игра МЛМ\Допники\Менеджер интернет-проектов\3 PROJects 2 Сессия №2 Тема Главные навыки и их отработка.mp4
Формат : MPEG-4
Профиль формата : Base Media / Version 2
Идентификатор кодека : mp42 (isom/mp42)
Размер файла : 1,29 Гбайт
Продолжительность : 2 ч. 20 м.
Режим общего битрейта : Переменный
Общий поток : 1315 Кбит/сек
Дата кодирования : UTC 2018-10-18 11:59:00
Дата пометки : UTC 2018-10-18 11:59:00
gsst : 0
gstd : 8445422
Видео
Идентификатор : 1
Формат : AVC
Формат/Информация : Advanced Video Codec
Профиль формата : Main@L3.1
Настройки формата : CABAC / 3 Ref Frames
Параметр CABAC формата : Да
Параметр RefFrames формата : 3 кадра
Идентификатор кодека : avc1
Идентификатор кодека/Информация : Advanced Video Coding
Продолжительность : 2 ч. 20 м.
Битрейт : 1184 Кбит/сек
Ширина : 1280 пикселей
Высота : 720 пикселей
Соотношение сторон : 16:9
Режим частоты кадров : Постоянный
Частота кадров : 25,000 кадров/сек
Цветовое пространство : YUV
Субдискретизация насыщенности : 4:2:0
Битовая глубина : 8 бит
Тип развёртки : Прогрессивная
Бит/(Пиксели*Кадры) : 0.051
Размер потока : 1,16 Гбайт (90%)
Заголовок : ISO Media file produced by Google Inc. Created on: 10/18/2018.
Дата кодирования : UTC 2018-10-18 11:59:00
Дата пометки : UTC 2018-10-18 11:59:00
Цветовой диапазон : Limited
Основные цвета : BT.709
Характеристики трансфера : BT.709
Коэффициенты матрицы : BT.709
Codec configuration box : avcC
Аудио
Идентификатор : 2
Формат : AAC LC
Формат/Информация : Advanced Audio Codec Low Complexity
Идентификатор кодека : mp4a-40-2
Продолжительность : 2 ч. 20 м.
Вид битрейта : Переменный
Битрейт : 128 Кбит/сек
Каналы : 2 канала
ChannelLayout : L R
Частота : 44,1 КГц
Частота кадров : 43,066 кадра/сек (1024 SPF)
Метод сжатия : С потерями
Размер потока : 129 Мбайт (10%)
Заголовок : ISO Media file produced by Google Inc. Created on: 10/18/2018.
Язык : English
Дата кодирования : UTC 2018-10-18 11:59:00
Дата пометки : UTC 2018-10-18 11:59:00
Большая игра МЛМ\Допники\Генератор партнеров в МЛМ\3.1. Воронка для автовебинара.mp4
Format : MPEG-4
Format profile : Base Media / Version 2
Codec ID : mp42 (isom/mp42)
File size : 24.2 MiB
Duration : 6 min 27 s
Overall bit rate mode : Variable
Overall bit rate : 524 kb/s
Encoded date : UTC 2019-01-16 03:26:38
Tagged date : UTC 2019-01-16 03:26:38
gsst : 0
gstd : 387169
Video
ID : 1
Format : AVC
Format/Info : Advanced Video Codec
Format profile : Main@L3.1
Format settings : CABAC / 3 Ref Frames
Format settings, CABAC : Yes
Format settings, Reference : 3 frames
Codec ID : avc1
Codec ID/Info : Advanced Video Coding
Duration : 6 min 27 s
Bit rate : 394 kb/s
Width : 1 280 pixels
Height : 720 pixels
Display aspect ratio : 16:9
Frame rate mode : Constant
Frame rate : 15.000 FPS
Color space : YUV
Chroma subsampling : 4:2:0
Bit depth : 8 bits
Scan type : Progressive
Bits/(Pixel*Frame) : 0.028
Stream size : 18.2 MiB (75%)
Title : ISO Media file produced by Google Inc. Created on: 01/15/2019.
Encoded date : UTC 2019-01-16 03:26:38
Tagged date : UTC 2019-01-16 03:26:38
Color range : Limited
Color primaries : BT.709
Transfer characteristics : BT.709
Matrix coefficients : BT.709
Codec configuration box : avcC
Audio
ID : 2
Format : AAC LC
Format/Info : Advanced Audio Codec Low Complexity
Codec ID : mp4a-40-2
Duration : 6 min 27 s
Bit rate mode : Variable
Bit rate : 128 kb/s
Channel(s) : 2 channels
Channel layout : L R
Sampling rate : 44.1 kHz
Frame rate : 43.066 FPS (1024 SPF)
Compression mode : Lossy
Stream size : 5.91 MiB (24%)
Title : ISO Media file produced by Google Inc. Created on: 01/15/2019.
Language : English
Encoded date : UTC 2019-01-16 03:26:38
Tagged date : UTC 2019-01-16 03:26:38
-
Общее
Полное имя : C:\Большая игра МЛМ\Допники\Менеджер интернет-проектов\2 PROJects 2 Сессия №1 Тема План запуска проекта QA.mp4
Формат : MPEG-4
Профиль формата : Base Media / Version 2
Идентификатор кодека : mp42 (isom/mp42)
Размер файла : 191 Мбайт
Продолжительность : 1 ч. 59 м.
Режим общего битрейта : Переменный
Общий поток : 223 Кбит/сек
Дата кодирования : UTC 2018-10-18 11:50:02
Дата пометки : UTC 2018-10-18 11:50:02
Видео
Идентификатор : 1
Формат : AVC
Формат/Информация : Advanced Video Codec
Профиль формата : Baseline@L2.2
Настройки формата : 1 Ref Frames
Параметр CABAC формата : Нет
Параметр RefFrames формата : 1 кадр
Параметр GOP формата : M=1, N=60
Идентификатор кодека : avc1
Идентификатор кодека/Информация : Advanced Video Coding
Продолжительность : 1 ч. 59 м.
Битрейт : 125 Кбит/сек
Ширина : 458 пикселей
Высота : 360 пикселей
Соотношение сторон : 1,272
Режим частоты кадров : Постоянный
Частота кадров : 30,000 кадров/сек
Цветовое пространство : YUV
Субдискретизация насыщенности : 4:2:0
Битовая глубина : 8 бит
Тип развёртки : Прогрессивная
Бит/(Пиксели*Кадры) : 0.025
Размер потока : 107 Мбайт (56%)
Заголовок : ISO Media file produced by Google Inc. Created on: 10/18/2018.
Дата кодирования : UTC 2018-10-18 11:50:02
Дата пометки : UTC 2018-10-18 11:50:02
Codec configuration box : avcC
Аудио
Идентификатор : 2
Формат : AAC LC
Формат/Информация : Advanced Audio Codec Low Complexity
Идентификатор кодека : mp4a-40-2
Продолжительность : 1 ч. 59 м.
Вид битрейта : Переменный
Битрейт : 96,0 Кбит/сек
Каналы : 2 канала
ChannelLayout : L R
Частота : 44,1 КГц
Частота кадров : 43,066 кадра/сек (1024 SPF)
Метод сжатия : С потерями
Размер потока : 82,1 Мбайт (43%)
Заголовок : ISO Media file produced by Google Inc. Created on: 10/18/2018.
Язык : English
Дата кодирования : UTC 2018-10-18 11:50:02
Дата пометки : UTC 2018-10-18 11:50:02

Продолжение описания:

Построив сеть в 110 000 человек в 10 странах мира за 2010-2011 год, а также в 2017 я создал команду с нуля, которая за 12 месяцев заработала 2 000 000 долларов. Я обнаружил ТОП-5 причин, по которым Вы еще не там, где хотите быть в отношении создания успешного бизнеса в МЛМ.
За два года я заработал свой первый миллион долларов в сетевом маркетинге,
потом я запустил программу Горячие Контакты Через Интернет. За один год ее прошли
1 100 человек. Все это время я дорабатывал и совершенствовал
программу, чтобы сегодня сказать:
Добро Пожаловать в полностью новый 3х месячный коучинг!
"Большая Игра в МЛМ или как получать от 10 человек в первую линию каждый месяц"

Дополнительная информация:

Раздача содержит Курс "Большая игра в МЛМ", в том числе:
- архив миникниг "Артёма Нестеренко"
- занятия по проведению бесплатных консультаций
- создание вовлекающего видео
- создание лид-магнита
- Авто-директ, и масс-лайкинг
- методы продвижения в Инстаграм
- построение личного бренда в соц. сетях
- работа в Instagram
- работа в YouTube
- работа в FaceBook
- работа в ВКонтакте
Дополнительные модули:
- Генератор партнеров в МЛМ
- менеджер интернет-проектов
- мышление миллионеров
- продающий копирайтинг
Скриншоты:
Скачать .torrent

Для того, чтобы скачать торрент-файл

Артём Нестеренко - Большая игра в МЛМ (2019)

с нашего сайта, Вам необходимо Войти на сайт под своим логином! Если у Вас ещё нет логина, тогда Вам нужно сначала Зарегистрироваться!

How to Download? · What is a torrent? · Правила, FAQ'и, инструкции

     Added      Похожие темы Size     S  |  L     Торрент
03-Apr-19 10:17 Артём Богдашевский - Основы финансовой грамотности. Краткий курс (2018) Replies 0 7 MB
56 | 0
Download .torrent
03-Apr-19 10:15 Артем Сенаторов - Telegram. Как запустить канал, привлечь подписчиков и заработать на контенте (2018) Replies 0 16 MB
58 | 24
Download .torrent
11-Nov-18 08:44 Александр Белановский и др. - Большая энциклопедия прямых продаж (2018) Replies 0 2 MB
30 | 0
Download .torrent
30-Sep-18 14:22 Брэдли Биркенфельд - Игра Люцифера. Как один человек раскрыл "глобальный заговор", вышел из тюрьмы и стал миллионером (2018) Replies 0 2 MB
26 | 0
Download .torrent
[Profile] [PM]
Display posts:    
Reply to topic

Артём Нестеренко - Большая игра в МЛМ (2019) скачать торрент (torrent)

Current time is: 16-Oct 19:41

All times are UTC ± 0



You cannot post new topics in this forum
You cannot reply to topics in this forum
You cannot edit your posts in this forum
You cannot delete your posts in this forum
You cannot vote in polls in this forum
You cannot attach files in this forum
You cannot download files in this forum